#TITLE:Jingelbell Mega Mix;
#SUBTITLE:Initiate;
#ARTIST:O2Jam Songs;
#TITLETRANSLIT:;
#SUBTITLETRANSLIT:;
#ARTISTTRANSLIT:;
#CREDIT:;
#BANNER:jmm-bn.jpg;
#BACKGROUND:;
#LYRICSPATH:;
#CDTITLE:cdtitle.png;
#MUSIC:Jingelbell Mega Mix.mp3;
#OFFSET:0.000;
#SAMPLESTART:100.000;
#SAMPLELENGTH:12.000;
#SELECTABLE:YES;
#BPMS:0.000=180.000;
#STOPS:;
#BGCHANGES:;
// cache tags:
#FIRSTBEAT:0.000;
#LASTBEAT:440.000;
#SONGFILENAME:Songs/Music V.I.P ^_^/jingabellmegamix/Jingelbell Mega Mix.sm;
#HASMUSIC:1;
#HASBANNER:1;
#MUSICLENGTH:149.133;
// end cache tags

//---------------dance-single - ----------------
#NOTES:
     dance-single:
     :
     Hard:
     15:
     1.000,1.000,1.000,0.034,1.000,1054.000,504.000,5.000,0.000,37.000:
0011
0000
0011
0000
0011
0000
0011
1100
,
0000
1100
0000
1100
0000
1100
0011
0011
,
0011
0000
1100
0000
1100
0000
1100
1100
,
0000
0000
0011
0000
0000
0000
0011
0000
0000
0000
0011
0000
1001
1000
0011
1000
,
1001
0000
0110
0000
0110
0000
0110
1001
,
0000
1001
0000
1001
0000
1001
0110
1001
,
0110
0000
0110
0000
0110
0000
0110
1001
,
0000
0000
1001
0000
0000
0000
1001
0000
0110
0000
1001
1001
0110
0000
0000
0000
,
0101
0000
0101
0000
0101
0100
1010
0001
,
1010
0000
1010
0000
1010
0000
0110
1000
,
0110
0000
0110
0000
0110
0001
0110
1000
,
0101
0010
1010
0100
0101
0010
1100
0000
,
1010
0000
1010
0000
1010
0001
0110
1000
,
1010
0000
1001
0000
1010
0000
1001
0100
,
1010
0001
0010
0100
1000
0100
0010
0001
1010
0001
0010
0100
1000
0100
0010
0001
,
1010
0001
0010
0100
1000
0100
0010
0001
1010
0001
0010
0100
1000
0100
0010
0001
,
1010
0000
0000
0000
1001
1001
1001
0110
,
0000
0000
0000
0000
0000
0011
1100
0110
,
0011
0000
1100
0000
1100
1100
1100
1100
,
0000
0011
0000
0011
,
0011
0000
0011
0000
0101
0101
0101
1010
,
0000
0000
0000
0000
0000
0001
0001
0001
,
0001
0000
0001
0000
0001
0001
0001
0001
,
0000
0001
0000
0001
,
0111
0000
1110
0000
1110
0000
1101
0111
,
0000
1110
1101
1011
1101
0000
0000
0000
,
0111
0000
0111
0000
1110
0000
1110
0111
,
0000
0111
0111
1110
1110
0000
1101
0000
,
1001
0000
0101
0000
0101
0000
0101
1000
,
0001
0100
1001
1000
0101
0000
0001
0000
,
1001
0000
1001
0000
1001
0000
1001
0100
,
0001
0100
1001
0100
1001
0000
1111
0000
,
1100
0010
1001
0010
1001
0010
1001
0010
1100
0010
1001
0010
1100
0010
1001
0010
,
1100
0010
1001
0010
1001
0010
1001
0010
1100
0010
1001
0010
1100
0010
1001
0010
,
1100
0010
1001
0010
1001
0010
1001
0010
1100
0010
1001
0010
1100
0010
1001
0010
,
1100
0010
1001
0010
1001
0010
1001
0010
1100
0010
1001
0010
1100
0010
1001
0010
,
1100
0010
1001
0010
1001
0010
1001
0010
1100
0010
1001
0010
1100
0010
1001
0010
,
1100
0010
1001
0010
1001
0010
1001
0010
1100
0010
1001
0010
1100
0010
1001
0010
,
1100
0010
1001
0010
1001
0010
1001
0010
1100
0010
1001
0010
1100
0010
1001
0010
,
1100
0010
1001
0010
1001
0010
1001
0010
1100
0010
0101
0010
1100
0010
0101
0010
,
1100
1100
1100
0000
1100
1100
1100
0000
,
0110
0000
1001
1001
1001
0000
0000
0000
,
1100
0001
1100
0010
1100
0001
1100
0010
1100
0001
1100
0010
1100
0010
1100
0010
,
1100
0001
1100
0010
1100
0001
1100
0010
2200
0000
0000
0000
3310
0001
0000
0000
,
0011
0011
0011
0000
0011
0011
0011
0000
,
0011
0000
1001
0110
0110
0000
0000
0000
,
0011
1000
0011
0100
0011
1000
0011
0100
0011
1000
0011
0100
0011
0100
0011
0100
,
0011
1000
0011
0100
0011
1000
0011
0100
0022
0000
0000
0000
1133
0000
0000
0000
,
1001
0100
0010
0001
0010
0001
1100
0001
1100
0010
1100
0010
1100
0010
1100
0010
,
0100
0010
0001
0010
0100
1000
0100
1000
0011
0100
0011
0100
0010
0100
0011
0100
,
0011
0100
1000
0100
0010
0001
0010
0100
1001
0010
1100
0010
1100
0010
1100
0010
,
1100
0010
0001
0010
0100
1000
0100
0010
1001
0100
0011
0100
0011
0100
0011
0100
,
0011
0100
1000
0100
0010
0001
0010
0100
1001
0010
1100
0010
1100
0010
1100
0010
,
1100
0010
0001
0010
0100
1000
0100
0010
1001
0100
0011
0100
0011
0100
0011
0100
,
0011
0100
1000
0100
0010
0001
0010
0100
1001
0100
0011
0100
0011
0100
0011
0100
,
0011
0100
1000
0100
0010
0001
0010
0100
1001
0000
1001
0000
1001
0000
0000
0000
,
1001
0110
1001
0000
0110
0110
1001
0000
,
0110
0000
0110
1001
0110
0000
1001
0000
,
0110
1010
0101
0110
1001
0110
0101
1010
,
0011
0110
1100
0110
0011
0000
0110
0000
,
1001
1001
1001
0000
1001
1001
1001
0000
,
1001
0000
1001
0110
0110
0000
1001
0000
,
1010
1001
1010
0011
0101
1001
0101
1010
,
0110
1001
0110
0110
1001
0000
1001
0000
,
1110
0000
0000
0000
1101
0000
0000
1110
0000
0111
0000
0000
0000
0000
0000
1110
,
0000
0111
0000
0000
0000
0111
0000
0000
0000
0111
0000
0000
0000
0000
0000
0111
,
0000
1011
0000
0000
0000
0000
1110
0000
1101
0000
0000
0000
0000
0000
0000
0000
,
1110
0000
1101
0010
0101
0010
0101
0010
1001
0100
1010
0100
1010
0100
1001
0010
,
0101
1000
0011
1000
0011
1000
0011
1000
0001
1000
0001
0100
0001
0010
0001
0010
,
1100
0010
1100
0010
1100
0010
1100
0010
1000
0001
1000
0010
1000
0100
1000
0100
,
0011
0100
0011
0100
0011
0100
0011
0100
0010
1000
0010
0100
0010
0001
0010
1000
,
0101
1000
0101
1000
0101
1000
0101
1000
0100
0001
0100
0010
0100
1000
0100
0001
,
1010
0001
1010
0001
1010
0001
1010
0001
1010
0001
1010
0001
1010
0001
1010
0001
,
1010
0001
1010
0001
1010
0001
1010
0001
1010
0001
1010
0001
1010
0001
1010
0001
,
1010
0100
0000
0000
0000
0000
0000
0000
0000
0000
0000
1000
0000
0010
0000
1000
,
0000
0000
0000
0000
0000
0000
0000
0001
0000
0000
0000
0001
0000
0010
0000
0100
,
0000
1000
0000
0000
0000
1000
0000
0000
0000
1000
0000
0010
0000
1000
0000
0100
,
0000
0010
0000
0010
0000
0010
0000
0100
0000
0010
0000
1000
0000
1000
0000
0100
,
0000
0010
0000
0000
0000
0010
0000
0000
0000
0010
0000
0100
0000
1000
0000
0100
,
0000
0000
0000
0100
0000
0000
0000
0100
0000
0000
0000
0100
0000
0010
0000
0001
,
0000
0010
0000
0000
0000
0010
0000
0000
0000
0010
0000
0001
0000
0010
0000
0100
,
0001
1010
0001
0010
0001
0110
0001
0010
0001
0110
0001
0010
0001
1010
0001
0110
,
1001
0110
1000
0100
1000
0110
1000
0100
1000
0110
1000
0100
1000
0110
1000
0101
,
1000
0110
1000
0100
1000
0110
1000
0100
1000
0110
1000
0100
1000
0110
1000
0101
,
1000
0110
1000
0100
1000
0110
1000
0100
1000
0110
1000
0100
1000
0110
1000
0101
,
1000
0110
1000
0101
1000
0110
1000
0110
1000
0101
1000
0110
1000
0101
1000
0110
,
1001
0110
0001
0010
0001
0010
0001
0010
0001
0010
0001
0110
0001
1010
0001
0110
,
0001
0010
0001
0010
0001
0010
0001
0110
0001
0010
0001
1010
0001
1010
0001
0110
,
1001
0110
1000
0100
1000
0100
1000
0100
1000
0100
1000
0100
1000
0101
1000
0101
,
1000
0110
1000
0101
1000
0101
1000
0101
1000
0110
1000
0110
1000
0101
1000
0101
,
1010
0101
0110
0000
0101
1010
1010
0000
,
0110
0000
0110
1001
0110
0000
0000
0000
,
1100
0110
0011
0110
1100
0011
0110
0011
,
0110
0001
0010
0001
0010
0001
0010
0001
0010
0001
0010
0001
0010
0001
0010
0001
,
1010
1000
1000
0000
1000
1000
1000
0000
,
1000
0000
0100
0001
0100
0000
0000
0000
,
1000
1000
1000
1000
1000
0100
0010
0001
,
0001
0000
0001
0000
0010
0000
0100
0000
1000
0000
0100
0000
0010
0001
0000
0000
,
1100
0010
1001
0010
1100
0010
1001
0010
1100
0010
1001
0010
1100
0010
1001
0010
,
1000
0100
0011
1000
0011
0100
0011
1000
0011
1000
0011
1000
0011
0100
0011
1000
,
0011
0100
1001
0100
0011
0100
1001
0100
0011
0100
1001
0100
0011
0100
1001
0100
,
0001
0010
1100
0010
1100
0001
1100
0001
1100
0001
1100
0010
1100
0001
1100
0010
,
1100
0010
1001
0010
1100
0010
1001
0010
1100
0010
1001
0010
1100
0010
1001
0010
,
1000
0100
0011
0100
0011
1000
0011
1000
0011
1000
0011
0100
0011
1000
0011
0100
,
1000
0010
1001
0010
1100
0010
1001
0010
1100
0010
1001
0010
1100
0010
0001
0010
,
1000
0100
0011
1000
0011
0100
0011
1000
0011
1000
0011
1000
0011
0100
0011
1000
,
0112
0000
0000
0000
,
0000
0000
0000
0000
,
0000
0000
0000
0000
,
0000
0000
0000
0000
,
0003
0000
0000
0000
;
